Minggu, 18 Desember 2011

The Ides of March 2011 DVDScr XVID AC3 HQ Hive-CM8

Thank you for using rssforward.com! This service has been made possible by all our customers. In order to provide a sustainable, best of the breed RSS to Email experience, we've chosen to keep this as a paid subscription service. If you are satisfied with your free trial, please sign-up today. Subscriptions without a plan would soon be removed. Thank you!

click the screenshot above to enlarge the image

Storyline: An idealistic staffer for a newbie presidential candidate gets a crash course on dirty politics during his stint on the campaign trail.…

Cast: Ryan Gosling / George Clooney / Philip Seymour Hoffman / Paul Giamatti / Evan Rachel Wood / Marisa Tomei / Jeffrey Wright / Max Minghella / Jennifer Ehle / Gregory Itzin / Michael Mantell / Yuriy Sardarov / Bella Ivory / Hayley Meyers / Maya Sayre

Genres: Drama

Language: English

IMDB Info:

Complete name: The.Ides.of.March.2011.DVDScr.XVID.AC3.HQ.Hive-CM8.avi
Format: AVI
Format/Info: Audio Video Interleave
File size: 1.45 GiB
Duration: 1h 41mn
Overall bit rate: 2 057 Kbps
Writing application: Nandub v1.0rc2
Writing library: Nandub build 1853/release

ID: 0
Format: MPEG-4 Visual
Format profile: Advanced Simple@L5
Format settings, BVOP: 2
Format settings, QPel: Yes
Format settings, GMC: No warppoints
Format settings, Matrix: Default (H.263)
Muxing mode: Packed bitstream
Codec ID: XVID
Codec ID/Hint: XviD
Duration: 1h 41mn
Bit rate: 1 600 Kbps
Width: 720 pixels
Height: 288 pixels
Display aspect ratio: 2.500
Frame rate: 23.976 fps
Color space: YUV
Chroma subsampling: 4:2:0
Bit depth: 8 bits
Scan type: Progressive
Compression mode: Lossy
Bits/(Pixel*Frame): 0.322
Stream size: 1.13 GiB (78%)
Writing library: XviD 1.2.1 (UTC 2008-12-04)

ID: 1
Format: AC-3
Format/Info: Audio Coding 3
Mode extension: CM (complete main)
Codec ID: 2000
Duration: 1h 41mn
Bit rate mode: Constant
Bit rate: 448 Kbps
Channel(s): 6 channels
Channel positions: Front: L C R, Side: L R, LFE
Sampling rate: 48.0 KHz
Bit depth: 16 bits
Compression mode: Lossy
Stream size: 324 MiB (22%)
Alignment: Split accross interleaves
Interleave, duration: 42 ms (1.00 video frame)
Interleave, preload duration: 500 ms

An idealistic staffer for a newbie presidential candidate gets a crash course
on dirty politics during his stint on the campaign trail

Ryan Gosling ... Stephen Meyers
George Clooney ... Governor Mike Morris
Philip Seymour Hoffman ... Paul Zara
Paul Giamatti ... Tom Duffy
Evan Rachel Wood ... Molly Stearns

File: The.Ides.of.March.2011.DVDScr.XVID.AC3.HQ.Hive-CM8.avi
Size: 1560406016 bytes (1.45 GiB), duration: 01:41:08, avg.bitrate: 2057 kb/s
Audio: ac3, 48000 Hz, 5:1, 448 kb/s
Video: mpeg4, yuv420p, 720x288, 23.98 fps(r)



Andy 18 Dec, 2011

Source: http://dailyhot4u.com/?p=4185
Manage subscription | Powered by rssforward.com

don 18 Dec, 2011

Source: http://donsoftware.blogspot.com/2011/12/ides-of-march-2011-dvdscr-xvid-ac3-hq.html
Manage subscription | Powered by rssforward.com

Tidak ada komentar:

Posting Komentar