Sabtu, 10 Desember 2011

White Vengeance 2011 (???) DVDScreen

click the screenshot above to enlarge the image

Director: Daniel Lee
Writer: Daniel Lee
Stars: Jordan Chan, Shao-feng Feng and Leon Lai

White Vengeance tells the story of two brothers contending for supremacy during the fall of the Qin Dynasty, which ruled Imperial China from 221 to 206 BC. As rebels rose, the nation fell into chaos. Liu Bang (Leon Lai) and Xiang Yu (Feng Shaofeng), became leaders of the rebellious army, and also became sworn brothers in battle.Xiang Yu and Liu Bang are close friends who both serve King Huai of Chu. King Huai uses a plot, saying that whoever can subvert the Qin kingdom in Guanzhong would be the Lord Qin, in order to benefit from the competition between Xiang Yu and Liu Bang. Xiang Yu is over-confident. He fights against the main force of Qin army, and entrusts Liu Bang with Yu Ji (Liu Yifei), the woman he loves.Liu Bang expresses his love to Yu Ji and takes the chance to invade Guanzhong first when most of Qin army is outside fighting against Xiang Yu's army. Xiang Yu is furious & betrayed when he found it. Xiang planned to kill Liu at a banquet held in Hong Men, during which Zhang Liang (Zhang Hanyu), the mastermind of Liu Bang, and Fan Zeng (Anthony Wong), the mastermind of Xiang Yu, have a direct confrontation. But who will emerge as the winner from this epic battle and survive to claim their path to the crown?

LANGUAGE: Mandarin
SUBTITLE: Chinese Hardsub

General
Complete name : D:@READY@White VegeanceWhite.Vengeance.avi
Format : AVI
Format/Info : Audio Video Interleave
File size : 1.14 GiB
Duration : 2h 14mn
Overall bit rate mode : Variable
Overall bit rate : 1 212 Kbps
Movie name : White.Vengeance.dvd_2.Title1.DVDRip
Writing application : Lavf52.33.0
Original source form/Name : White.Vengeance.dvd_2

Video
ID : 0
Format : AVC
Format/Info : Advanced Video Codec
Format profile : Main@L3.0
Format settings, CABAC : Yes
Format settings, ReFrames : 1 frame
Format settings, GOP : M=1, N=15
Codec ID : H264
Duration : 2h 14mn
Bit rate mode : Variable
Bit rate : 1 008 Kbps
Maximum bit rate : 1 513 Kbps
Width : 720 pixels
Height : 312 pixels
Display aspect ratio : 2.35:1
Frame rate : 29.970 fps
Color space : YUV
Chroma subsampling : 4:2:0
Bit depth : 8 bits
Scan type : Progressive
Bits/(Pixel*Frame) : 0.150
Stream size : 972 MiB (83%)

Audio
ID : 1
Format : AC-3
Format/Info : Audio Coding 3
Mode extension : CM (complete main)
Codec ID : 2000
Duration : 2h 14mn
Bit rate mode : Constant
Bit rate : 192 Kbps
Channel(s) : 2 channels
Channel positions : Front: L R
Sampling rate : 48.0 KHz
Bit depth : 16 bits
Compression mode : Lossy
Stream size : 185 MiB (16%)
Alignment : Aligned on interleaves
Interleave, duration : 32 ms (0.96 video frame)

Director: Daniel Lee
Writer: Daniel Lee
Stars: Jordan Chan, Shao-feng Feng and Leon Lai

White Vengeance tells the story of two brothers contending for supremacy during the fall of the Qin Dynasty, which ruled Imperial China from 221 to 206 BC. As rebels rose, the nation fell into chaos. Liu Bang (Leon Lai) and Xiang Yu (Feng Shaofeng), became leaders of the rebellious army, and also became sworn brothers in battle.Xiang Yu and Liu Bang are close friends who both serve King Huai of Chu. King Huai uses a plot, saying that whoever can subvert the Qin kingdom in Guanzhong would be the Lord Qin, in order to benefit from the competition between Xiang Yu and Liu Bang. Xiang Yu is over-confident. He fights against the main force of Qin army, and entrusts Liu Bang with Yu Ji (Liu Yifei), the woman he loves.Liu Bang expresses his love to Yu Ji and takes the chance to invade Guanzhong first when most of Qin army is outside fighting against Xiang Yu's army. Xiang Yu is furious & betrayed when he found it. Xiang planned to kill Liu at a banquet held in Hong Men, during which Zhang Liang (Zhang Hanyu), the mastermind of Liu Bang, and Fan Zeng (Anthony Wong), the mastermind of Xiang Yu, have a direct confrontation. But who will emerge as the winner from this epic battle and survive to claim their path to the crown?

LANGUAGE: Mandarin
SUBTITLE: Chinese Hardsub

General
Complete name : D:@READY@White VegeanceWhite.Vengeance.avi
Format : AVI
Format/Info : Audio Video Interleave
File size : 1.14 GiB
Duration : 2h 14mn
Overall bit rate mode : Variable
Overall bit rate : 1 212 Kbps
Movie name : White.Vengeance.dvd_2.Title1.DVDRip
Writing application : Lavf52.33.0
Original source form/Name : White.Vengeance.dvd_2

Video
ID : 0
Format : AVC
Format/Info : Advanced Video Codec
Format profile : Main@L3.0
Format settings, CABAC : Yes
Format settings, ReFrames : 1 frame
Format settings, GOP : M=1, N=15
Codec ID : H264
Duration : 2h 14mn
Bit rate mode : Variable
Bit rate : 1 008 Kbps
Maximum bit rate : 1 513 Kbps
Width : 720 pixels
Height : 312 pixels
Display aspect ratio : 2.35:1
Frame rate : 29.970 fps
Color space : YUV
Chroma subsampling : 4:2:0
Bit depth : 8 bits
Scan type : Progressive
Bits/(Pixel*Frame) : 0.150
Stream size : 972 MiB (83%)

Audio
ID : 1
Format : AC-3
Format/Info : Audio Coding 3
Mode extension : CM (complete main)
Codec ID : 2000
Duration : 2h 14mn
Bit rate mode : Constant
Bit rate : 192 Kbps
Channel(s) : 2 channels
Channel positions : Front: L R
Sampling rate : 48.0 KHz
Bit depth : 16 bits
Compression mode : Lossy
Stream size : 185 MiB (16%)
Alignment : Aligned on interleaves
Interleave, duration : 32 ms (0.96 video frame)

FILESERVE FILESONIC FILEJUNGLE UPLOADSTATION WUPLOAD

ALTERNATIVE

Andy 10 Dec, 2011


--
Source: http://dailyhot4u.com/?p=3957
~
Manage subscription | Powered by rssforward.com

don 10 Dec, 2011


--
Source: http://donsoftware.blogspot.com/2011/12/white-vengeance-2011-dvdscreen_10.html
~
Manage subscription | Powered by rssforward.com

Tidak ada komentar:

Posting Komentar